Translate

Wednesday, 23 May 2012

The Avengers (2012) HQTS XVID BBNRG






FILE INFORMATION
[quote]
credit to rapidmoviez
General Information
Complete name                            : The Avengers (2013) HQTS XviD BBnRG.avi
Format                                   : AVI
Format/Info                              : Audio Video Interleave
File size                                : 1.94 GiB
Duration                                 : 2h 12mn
Overall bit rate                         : 2 092 Kbps

Video
ID                                       : 0
Format                                   : MPEG-4 Visual
Format profile                           : Advanced Simple@L5
Format settings, BVOP                    : 2
Format settings, QPel                    : Yes
Format settings, GMC                     : No warppoints
Format settings, Matrix                  : Default (H.263)
Codec ID                                 : XVID
Codec ID/Hint                            : XviD
Duration                                 : 2h 12mn
Bit rate                                 : 1 699 Kbps
Width                                    : 720 pixels
Height                                   : 304 pixels
Display aspect ratio                     : 2.35:1
Frame rate                               : 29.970 fps
Color space                              : YUV
Chroma subsampling                       : 4:2:0
Bit depth                                : 8 bits
Scan type                                : Progressive
Compression mode                         : Lossy
Bits/(Pixel*Frame)                       : 0.259
Stream size                              : 1.58 GiB (81%)
Writing library                          : XviD 1.2.1 (UTC 2008-12-04)

Audio
ID                                       : 1
Format                                   : AC-3
Format/Info                              : Audio Coding 3
Mode extension                           : CM (complete main)
Format settings, Endianness              : Big
Codec ID                                 : 2000
Duration                                 : 2h 12mn
Bit rate mode                            : Constant
Bit rate                                 : 384 Kbps
Channel(s)                               : 6 channels
Channel positions                        : Front: L C R, Side: L R, LFE
Sampling rate                            : 48.0 KHz
Bit depth                                : 16 bits
Compression mode                         : Lossy
Stream size                              : 365 MiB (18%)
Alignment                                : Aligned on interleaves
Interleave, duration                     : 64 ms (1.92 video frames)
Interleave, preload duration             : 192 ms
Title                                    : The Avengers (2012) BBnRG

Text
ID                                       : 2
Duration                                 : 2h 12mn
Bit rate                                 : 2 bps
Stream size                              : 1.88 KiB (0%)
Title                                    : The Avengers (2012) BBnRG

Notes
Encoder:    FridayToker               
Source(s):  Chinese HDCAM Vob files (thanks)

Hardcoded subs for alien parts.

Summary
142 min  -  Action | Adventure | Sci-Fi  -   26 April 2012 (UK) 

Nick Fury is director of S.H.I.E.L.D, an international peace keeping agency. The agency is a who's who of Marvel Super Heroes, with Iron Man, The Incredible Hulk, Thor, Captain America, Hawkeye and Black Widow. When global security is threatened by Loki and his cohorts, Nick Fury and his team will need all their powers to save the world from disaster.

IMDb Link:
http://www.imdb.com/title/tt0848228/

Screens








OR


OR


OR
















No comments:

Post a Comment