Translate

Wednesday, 23 May 2012

The Dictator 2012 CAM READNFO XviD-26k







The Dictator 2012 CAM READNFO XviD-26k
credit to rapidmoviez
http://www.imdb.com/title/tt1645170/

Plot:

The heroic story of a dictator who risks his life to ensure that democracy 
would never come to the country he so lovingly oppressed.


Sources - VIDEO: ELEKTRI4KA ....Thanks 
          AUDIO: Santana ...Thanks 


Format                                   : AVI
Format/Info                              : Audio Video Interleave
File size                                : 472 MiB
Duration                                 : 1h 13mn
Overall bit rate                         : 892 Kbps
Writing library                          : VirtualDub build 32839/release

Video
ID                                       : 0
Format                                   : MPEG-4 Visual
Format profile                           : Advanced Simple@L5
Format settings, BVOP                    : 2
Format settings, QPel                    : No
Format settings, GMC                     : No warppoints
Format settings, Matrix                  : Default (H.263)
Muxing mode                              : Packed bitstream
Codec ID                                 : XVID
Codec ID/Hint                            : XviD
Duration                                 : 1h 13mn
Bit rate                                 : 755 Kbps
Width                                    : 720 pixels
Height                                   : 256 pixels
Display aspect ratio                     : 2.813
Frame rate                               : 25.000 fps
Color space                              : YUV
Chroma subsampling                       : 4:2:0
Bit depth                                : 8 bits
Scan type                                : Progressive
Compression mode                         : Lossy
Bits/(Pixel*Frame)                       : 0.164
Stream size                              : 399 MiB (85%)
Writing library                          : XviD 1.2.1 (UTC 2008-12-04)

Audio
ID                                       : 1
Format                                   : MPEG Audio
Format version                           : Version 2
Format profile                           : Layer 3
Mode                                     : Joint stereo
Mode extension                           : MS Stereo
Codec ID                                 : 55
Codec ID/Hint                            : MP3
Duration                                 : 1h 13mn
Bit rate mode                            : Constant
Bit rate                                 : 128 Kbps
Channel(s)                               : 2 channels
Sampling rate                            : 22.05 KHz
Compression mode                         : Lossy
Delay relative to video                  : 3s 800ms
Stream size                              : 67.7 MiB (14%)
Alignment                                : Split accross interleaves
Interleave, duration                     : 40 ms (1.00 video frame)
Interleave, preload duration             : 500 ms


Notes -

K. vid is missing pieces here and there nothing more than 2-3 sec at a time... reason
for small file is source wasnt that great so didnt want to go all out on it.. 
cleaned up teh vid sum and then just synced up the CAM audio to it after cleaning it
adjusting eq a lil bit and boosting the volume a tad... enjoy til better source comes out...

Enjoy!!


Movie Trailer












No comments:

Post a Comment